<?xml version="1.0" standalone="no"?>
<!DOCTYPE svg PUBLIC "-//W3C//DTD SVG 1.1//EN" "http://www.w3.org/Graphics/SVG/1.1/DTD/svg11.dtd" >
<svg xmlns="http://www.w3.org/2000/svg" xmlns:xlink="http://www.w3.org/1999/xlink" version="1.1">
<metadata>
Created by FontForge 20201107 at Mon Jun 22 19:17:16 2015
 By 
Copyright (c) 2015, Stephan Ahlf (https://github.com/s-a/digital-numbers-font stephan.ahlf@googlemail.com)
</metadata>
<defs>
<font id="DigitalNumbers-Regular" horiz-adv-x="800" >
  <font-face 
    font-family="Digital Numbers"
    font-weight="400"
    font-stretch="normal"
    units-per-em="1000"
    panose-1="2 0 5 3 0 0 0 0 0 0"
    ascent="800"
    descent="-200"
    x-height="748"
    cap-height="760"
    bbox="-113 -317 913 974"
    underline-thickness="50"
    underline-position="-150"
    unicode-range="U+0001-00FF"
  />
<missing-glyph horiz-adv-x="364" 
d="M33 0v666h265v-666h-265zM66 33h199v600h-199v-600z" />
    <glyph glyph-name=".notdef" horiz-adv-x="364" 
d="M33 0v666h265v-666h-265zM66 33h199v600h-199v-600z" />
    <glyph glyph-name="uni0000" 
 />
    <glyph glyph-name="uni0000" 
 />
    <glyph glyph-name="uni000D" unicode="&#xd;" 
 />
    <glyph glyph-name="uni0001" 
 />
    <glyph glyph-name="uni0002" 
 />
    <glyph glyph-name="uni0003" 
 />
    <glyph glyph-name="uni0004" 
 />
    <glyph glyph-name="uni0005" 
 />
    <glyph glyph-name="uni0006" 
 />
    <glyph glyph-name="uni0007" 
 />
    <glyph glyph-name="uni0008" 
 />
    <glyph glyph-name="uni0009" unicode="&#x9;" 
 />
    <glyph glyph-name="uni000A" unicode="&#xa;" 
 />
    <glyph glyph-name="uni000B" 
 />
    <glyph glyph-name="uni000C" 
 />
    <glyph glyph-name="uni000E" 
 />
    <glyph glyph-name="uni000F" 
 />
    <glyph glyph-name="uni0010" 
 />
    <glyph glyph-name="uni0011" 
 />
    <glyph glyph-name="uni0012" 
 />
    <glyph glyph-name="uni0013" 
 />
    <glyph glyph-name="uni0014" 
 />
    <glyph glyph-name="uni0015" 
 />
    <glyph glyph-name="uni0016" 
 />
    <glyph glyph-name="uni0017" 
 />
    <glyph glyph-name="uni0018" 
 />
    <glyph glyph-name="uni0019" 
 />
    <glyph glyph-name="uni001A" 
 />
    <glyph glyph-name="uni001B" 
 />
    <glyph glyph-name="uni001C" 
 />
    <glyph glyph-name="uni001D" 
 />
    <glyph glyph-name="uni001E" 
 />
    <glyph glyph-name="uni001F" 
 />
    <glyph glyph-name="space" unicode=" " 
 />
    <glyph glyph-name="exclam" unicode="!" 
d="M453 760v-747l-108 97v547zM348 -65h107v-128h-107v128z" />
    <glyph glyph-name="quotedbl" unicode="&#x22;" 
d="M331 774h48v-127h-48v127zM421 774h48v-127h-48v127z" />
    <glyph glyph-name="numbersign" unicode="#" 
d="M631 492l282 1l-225 -114h-72l-17 -127l274 1l-224 -115h-65l-42 -315l-83 240l10 75l-205 -1l-42 -314l-84 240l10 74l-261 -1l226 115h50l18 126l-254 -1l226 115h43l44 325l82 -237l-12 -88l207 1l43 324l82 -237zM501 378l-206 -1l-16 -126l205 1z" />
    <glyph glyph-name="dollar" unicode="$" 
d="M177 -163l103 108h25v347h-42q-35 28 -71 55l71 53h42v345h-26l-103 108h129v80h57v-80h73v80h56v-80h132l-99 -108h-33v-345h45l70 -53l-70 -55h-45v-347h36l97 -108h-133v-45h-56v45h-73v-45h-57v45h-128zM656 -119l-108 103v246l108 98v-447zM144 363v447l108 -97
v-248zM362 745v-345h73v345h-73zM362 292v-347h73v347h-73z" />
    <glyph glyph-name="percent" unicode="%" 
d="M573 536l-343 -680v254l343 677v-251zM491 244h128v-128h-128v128zM181 535h128v-128h-128v128z" />
    <glyph glyph-name="ampersand" unicode="&#x26;" 
d="M678 240l-15 -148l-38 -32l51 -38q19 -39 38 -79l-86 -17l-86 64l-235 -198l-144 25l165 127l2 1q2 1 3 2q3 1 6 5t5 5l114 96l-245 184l-39 80l88 18l279 -211zM87 278l108 -104v-245l-108 -98v447zM116 803h289l-98 -108h-87zM86 313v447l107 -97v-248zM456 780v-217
l-108 97v17z" />
    <glyph glyph-name="quotesingle" unicode="'" 
d="M337 944h126v-247h-126v247z" />
    <glyph glyph-name="parenleft" unicode="(" 
d="M292 -213l103 108h47l98 -108h-248zM263 278l107 -104v-245l-107 -98v447zM291 803h246l-97 -108h-47zM260 313v447l107 -97v-248z" />
    <glyph glyph-name="parenright" unicode=")" 
d="M508 -213h-248l98 108h47zM537 278v-447l-107 98v245zM509 803l-102 -108h-47l-97 108h246zM540 313l-107 102v248l107 97v-447z" />
    <glyph glyph-name="asterisk" unicode="*" 
d="M263 242q-35 29 -70 55l70 53h7l-5 6l-10 86l86 -11l6 -4v7q26 32 53 69l53 -69v-7l6 4l86 11l-10 -86l-5 -6h7l70 -53l-70 -55h-7l5 -5l10 -86l-86 12l-6 3v-6l-53 -70l-53 70v6l-6 -3l-86 -12l10 86l5 5h-7zM270 242h77v-76l53 54l-22 22h-31v32l-24 23zM453 427
l-53 -54l22 -23h31v-31l24 -22l53 53h-77v77z" />
    <glyph glyph-name="plus" unicode="+" 
d="M263 242q-35 29 -70 55l70 53h84v84q26 32 53 69l53 -69v-84h84l70 -53l-70 -55h-84v-82l-53 -70l-53 70v82h-84z" />
    <glyph glyph-name="comma" unicode="," horiz-adv-x="100" 
d="M0 94h127v-128h-127v128zM128 -67q-22 -9 -41.5 -31t-31.5 -46.5t-21 -47.5t-15 -38t-9 -15q-4 0 -5.5 35t-3.5 143h127z" />
    <glyph glyph-name="hyphen" unicode="-" 
d="M263 242q-35 29 -70 55l70 53h274l70 -53l-70 -55h-274z" />
    <glyph glyph-name="period" unicode="." horiz-adv-x="100" 
d="M0 -65h126v-128h-126v128z" />
    <glyph glyph-name="slash" unicode="/" 
d="M572 536l-344 -680v254l344 677v-251z" />
    <glyph glyph-name="zero" unicode="0" 
d="M177 -213l103 108h247l97 -108h-447zM147 278l108 -104v-245l-108 -98v447zM656 -169l-108 103v246l108 98v-447zM176 803h447l-99 -108h-245zM144 313v447l108 -97v-248zM653 760v-447l-108 97v247z" />
    <glyph glyph-name="one" unicode="1" 
d="M144 548zM656 -169l-108 103v246l108 98v-447zM653 760v-447l-108 97v247z" />
    <glyph glyph-name="two" unicode="2" 
d="M177 -213l103 108h247l97 -108h-447zM147 278l108 -104v-245l-108 -98v447zM263 242q-35 28 -71 55l71 53h273l70 -53l-70 -55h-273zM176 803h447l-99 -108h-245zM653 760v-447l-108 97v247z" />
    <glyph glyph-name="three" unicode="3" 
d="M180 -213l101 108h248l97 -108h-446zM657 -169l-107 103v246l107 98v-447zM264 242q-34 28 -70 55l70 53h273l70 -53l-70 -55h-273zM177 803h448l-98 -108h-247zM654 760v-447l-107 97v247z" />
    <glyph glyph-name="four" unicode="4" 
d="M656 -169l-108 103v246l108 98v-447zM263 242q-35 28 -71 55l71 53h273l70 -53l-70 -55h-273zM144 313v447l108 -97v-248zM653 760v-447l-108 97v247z" />
    <glyph glyph-name="five" unicode="5" 
d="M177 -213l103 108h247l97 -108h-447zM656 -169l-108 103v246l108 98v-447zM263 242q-35 28 -71 55l71 53h273l70 -53l-70 -55h-273zM176 803h447l-99 -108h-245zM144 313v447l108 -97v-248z" />
    <glyph glyph-name="six" unicode="6" 
d="M177 -213l103 108h247l97 -108h-447zM147 278l108 -104v-245l-108 -98v447zM656 -169l-108 103v246l108 98v-447zM263 242q-35 28 -71 55l71 53h273l70 -53l-70 -55h-273zM176 803h447l-99 -108h-245zM144 313v447l108 -97v-248z" />
    <glyph glyph-name="seven" unicode="7" 
d="M660 -169l-107 103v246l107 98v-447zM180 803h448l-98 -108h-247zM657 760v-447l-107 97v247z" />
    <glyph glyph-name="eight" unicode="8" 
d="M177 -213l103 108h247l97 -108h-447zM147 278l108 -104v-245l-108 -98v447zM656 -169l-108 103v246l108 98v-447zM263 242q-35 28 -71 55l71 53h273l70 -53l-70 -55h-273zM176 803h447l-99 -108h-245zM144 313v447l108 -97v-248zM653 760v-447l-108 97v247z" />
    <glyph glyph-name="nine" unicode="9" 
d="M656 -169l-108 103v246l108 98v-447zM263 242q-35 28 -71 55l71 53h273l70 -53l-70 -55h-273zM176 803h447l-99 -108h-245zM144 313v447l108 -97v-248zM653 760v-447l-108 97v247z" />
    <glyph glyph-name="colon" unicode=":" 
d="M337 288h126v-125h-126v125zM337 585h126v-128h-126v128z" />
    <glyph glyph-name="semicolon" unicode=";" 
d="M336 329h127v-116h-126v-11h110q-44 -31 -84 -136q-13 -32 -16 -32q-7 0 -10 168h-1v127zM336 594h127v-128h-127v128zM463 212h1v1h-1v-1zM463 212v-10h-16q3 1 8 5t8 5z" />
    <glyph glyph-name="less" unicode="&#x3c;" 
d="M464 20l-379 274l252 -1l378 -273h-251zM464 623l251 1l-378 -274h-252z" />
    <glyph glyph-name="equal" unicode="=" 
d="M223 213q-37 28 -70 53l70 54h354l70 -54l-70 -53h-354zM223 402q-37 29 -70 55l70 53h354l70 -53l-70 -55h-354z" />
    <glyph glyph-name="greater" unicode="&#x3e;" 
d="M336 20h-251l378 273l252 1zM336 623l379 -273h-252l-378 274z" />
    <glyph glyph-name="question" unicode="?" 
d="M265 278l108 -104v-136l-108 -97v337zM383 242q-37 29 -70 55l70 53h138l70 -53l-70 -55h-138zM162 803h447l-99 -108h-246zM638 760v-447l-107 97v247zM284 -160l-36 26l69 54h4l70 -54l-70 -53h-4z" />
    <glyph glyph-name="at" unicode="@" 
 />
    <glyph glyph-name="A" unicode="A" 
d="M147 278l108 -104v-245l-108 -98v447zM656 -169l-108 103v246l108 98v-447zM263 242q-35 28 -71 55l71 53h273l70 -53l-70 -55h-273zM176 803h447l-99 -108h-245zM144 313v447l108 -97v-248zM653 760v-447l-108 97v247z" />
    <glyph glyph-name="B" unicode="B" 
d="M177 -213l103 108h247l97 -108h-447zM147 278l108 -104v-245l-108 -98v447zM656 -169l-108 103v246l108 98v-447zM263 242q-35 28 -71 55l71 53h273l70 -53l-70 -55h-273zM176 803h447l-99 -108h-245zM144 313v447l108 -97v-248zM653 760v-447l-108 97v247z" />
    <glyph glyph-name="C" unicode="C" 
d="M192 -213l103 108h247l98 -108h-448zM163 278l107 -104v-245l-107 -98v447zM191 803h446l-97 -108h-247zM160 313v447l107 -97v-248z" />
    <glyph glyph-name="D" unicode="D" 
d="M177 -213l103 108h247l97 -108h-447zM147 278l108 -104v-245l-108 -98v447zM656 -169l-108 103v246l108 98v-447zM176 803h447l-99 -108h-245zM144 313v447l108 -97v-248zM653 760v-447l-108 97v247z" />
    <glyph glyph-name="E" unicode="E" 
d="M192 -213l103 108h247l98 -108h-448zM163 278l107 -104v-245l-107 -98v447zM278 242q-37 29 -70 55l70 53h273l70 -53l-70 -55h-273zM191 803h446l-97 -108h-247zM160 313v447l107 -97v-248z" />
    <glyph glyph-name="F" unicode="F" 
d="M163 278l107 -104v-245l-107 -98v447zM279 242q-37 29 -70 55l70 53h273l70 -53l-70 -55h-273zM191 803h447l-97 -108h-247zM162 313v447l107 -97v-248z" />
    <glyph glyph-name="G" unicode="G" 
d="M177 -213l103 108h247l97 -108h-447zM147 278l108 -104v-245l-108 -98v447zM656 -169l-108 103v246l108 98v-447zM263 242q-35 28 -71 55l71 53h273l70 -53l-70 -55h-273zM176 803h447l-99 -108h-245zM144 313v447l108 -97v-248z" />
    <glyph glyph-name="H" unicode="H" 
d="M147 278l108 -104v-245l-108 -98v447zM656 -169l-108 103v246l108 98v-447zM263 242q-35 28 -71 55l71 53h273l70 -53l-70 -55h-273zM144 313v447l108 -97v-248zM653 760v-447l-108 97v247z" />
    <glyph glyph-name="I" unicode="I" 
d="M455 -169l-108 103v246l108 98v-447zM453 760v-447l-108 97v247z" />
    <glyph glyph-name="J" unicode="J" 
d="M545 -169l-108 103v246l108 98v-447zM543 760v-447l-107 97v247zM399 -92l103 -108h-247l98 108h46z" />
    <glyph glyph-name="K" unicode="K" 
d="M265 150v-221l-107 -98v447zM474 35q1 -1 5.5 -5t6.5 -7q0 -1 1 -1l1 -2l146 -150zM474 558q1 1 5.5 5t6.5 7l1 1q1 1 1 2l146 150zM158 278l107 -104v-245l-107 -98v447zM273 242q-36 29 -68 55l68 53h5l69 -53l-69 -55h-5zM156 313v447l107 -97v-248zM323 193h149
q34 -34 94.5 -98t76.5 -81l-9 -144l-146 150l-1 1q-1 1 -1 2l-12 12zM323 400l151 158q1 1 5.5 5t6.5 7l1 1q1 1 1 2l146 150l9 -144q-16 -17 -76.5 -81t-94.5 -98h-149z" />
    <glyph glyph-name="L" unicode="L" 
d="M192 -213l103 108h247l98 -108h-448zM163 278l107 -104v-245l-107 -98v447zM160 313v447l107 -97v-248z" />
    <glyph glyph-name="M" unicode="M" 
d="M101 278l108 -104v-245l-108 -98v447zM710 -169l-108 103v246l108 98v-447zM383 534l5 -44l-87 8l-201 187l-14 86l87 -8l201 -185zM99 313v327l108 -98v-127zM708 640v-327l-108 97v127zM417 534l9 44l201 185l87 8l-14 -86l-201 -187l-87 -8z" />
    <glyph glyph-name="N" unicode="N" 
d="M97 363v449l108 -99v-247zM706 812v-449l-108 99v246zM94 329l108 -103v-247l-108 -98v448zM703 -119l-108 104v246l108 98v-448zM256 516v203l284 -478v-204z" />
    <glyph glyph-name="O" unicode="O" 
d="M177 -213l103 108h247l97 -108h-447zM147 278l108 -104v-245l-108 -98v447zM656 -169l-108 103v246l108 98v-447zM176 803h447l-99 -108h-245zM144 313v447l108 -97v-248zM653 760v-447l-108 97v247z" />
    <glyph glyph-name="P" unicode="P" 
d="M148 278l108 -104v-245l-108 -98v447zM263 242q-35 29 -70 55l70 53h274l70 -53l-70 -55h-274zM177 803h446l-97 -108h-247zM145 313v447l108 -97v-248zM655 760v-447l-108 97v247z" />
    <glyph glyph-name="Q" unicode="Q" 
d="M177 -213l103 108h247l97 -108h-447zM147 278l108 -104v-245l-108 -98v447zM656 -169l-108 103v246l108 98v-447zM176 803h447l-99 -108h-245zM144 313v447l108 -97v-248zM653 760v-447l-108 97v247zM476 -63l-149 4l154 154l6 6t5 6q0 1 2 3q0 2 1 2l6 4l8 -145z" />
    <glyph glyph-name="R" unicode="R" 
d="M256 150v-221l-108 -98v447zM602 48zM479 176l154 -162l-11 -144q-143 150 -146 153q-2 3 -6 6t-6 6l-151 158zM148 278l108 -104v-245l-108 -98v447zM263 242q-35 29 -70 55l70 53h274l70 -53l-70 -55h-274zM177 803h446l-97 -108h-247zM145 313v447l108 -97v-248z
M655 760v-447l-108 97v247zM313 193h150q33 -35 94.5 -99.5t75.5 -79.5l-11 -144q-143 150 -146 153q-2 3 -6 6t-6 6z" />
    <glyph glyph-name="S" unicode="S" 
d="M177 -213l103 108h247l97 -108h-447zM656 -169l-108 103v246l108 98v-447zM263 242q-35 28 -71 55l71 53h273l70 -53l-70 -55h-273zM176 803h447l-99 -108h-245zM144 313v447l108 -97v-248z" />
    <glyph glyph-name="T" unicode="T" 
d="M455 -169l-108 103v246l108 98v-447zM93 713q-35 28 -70 53l70 54h614l70 -54l-70 -53h-255v-400l-108 97v247l59 56h-310z" />
    <glyph glyph-name="U" unicode="U" 
d="M177 -213l103 108h247l97 -108h-447zM147 278l108 -104v-245l-108 -98v447zM656 -169l-108 103v246l108 98v-447zM144 313v447l108 -97v-248zM653 760v-447l-108 97v247z" />
    <glyph glyph-name="V" unicode="V" 
d="M792 536l-344 -680v254l344 677v-251zM8 536v251l344 -677v-254z" />
    <glyph glyph-name="W" unicode="W" 
d="M699 323l-108 104v246l108 98v-448zM90 771l108 -104v-246l-108 -98v448zM417 67l-5 45l87 -9l201 -186l14 -86l-87 7l-201 186zM701 288v-326l-108 97v127zM92 -38v326l108 -97v-127zM383 67l-9 -43l-201 -186l-87 -7l14 86l201 186l87 9z" />
    <glyph glyph-name="X" unicode="X" 
d="M103 565v183l297 -354l297 354v-183l-220 -263l220 -262v-184l-297 354l-297 -354v184l220 262z" />
    <glyph glyph-name="Y" unicode="Y" 
d="M622 595l-444 -730v185l198 325l46 -49v124l200 328v-183zM376 375l46 75v60l-244 268v-192z" />
    <glyph glyph-name="Z" unicode="Z" 
d="M177 -152l103 108h247l97 -108h-447zM176 763h447l-99 -107h-245zM620 486l-444 -560v184l444 557v-181z" />
    <glyph glyph-name="bracketleft" unicode="[" 
d="M292 -213l103 108h47l98 -108h-248zM263 278l107 -104v-245l-107 -98v447zM291 803h246l-97 -108h-47zM260 313v447l107 -97v-248z" />
    <glyph glyph-name="backslash" unicode="\" 
d="M228 536v251l344 -677v-254z" />
    <glyph glyph-name="bracketright" unicode="]" 
d="M508 -213h-248l98 108h47zM537 278v-447l-107 98v245zM509 803l-102 -108h-47l-97 108h246zM540 313l-107 102v248l107 97v-447z" />
    <glyph glyph-name="asciicircum" unicode="^" 
d="M379 778h47l97 -108h-246z" />
    <glyph glyph-name="underscore" unicode="_" 
d="M93 -198q-35 29 -70 55l70 53h614l70 -53l-70 -55h-614z" />
    <glyph glyph-name="grave" unicode="`" 
d="M393 959l123 -214l-109 -62l-123 212z" />
    <glyph glyph-name="a" unicode="a" 
d="M147 278l108 -104v-245l-108 -98v447zM656 -169l-108 103v246l108 98v-447zM263 242q-35 28 -71 55l71 53h273l70 -53l-70 -55h-273zM176 803h447l-99 -108h-245zM144 313v447l108 -97v-248zM653 760v-447l-108 97v247z" />
    <glyph glyph-name="b" unicode="b" 
d="M177 -213l103 108h247l97 -108h-447zM147 278l108 -104v-245l-108 -98v447zM656 -169l-108 103v246l108 98v-447zM263 242q-35 28 -71 55l71 53h273l70 -53l-70 -55h-273zM176 803h447l-99 -108h-245zM144 313v447l108 -97v-248zM653 760v-447l-108 97v247z" />
    <glyph glyph-name="c" unicode="c" 
d="M192 -213l103 108h247l98 -108h-448zM163 278l107 -104v-245l-107 -98v447zM191 803h446l-97 -108h-247zM160 313v447l107 -97v-248z" />
    <glyph glyph-name="d" unicode="d" 
d="M177 -213l103 108h247l97 -108h-447zM147 278l108 -104v-245l-108 -98v447zM656 -169l-108 103v246l108 98v-447zM176 803h447l-99 -108h-245zM144 313v447l108 -97v-248zM653 760v-447l-108 97v247z" />
    <glyph glyph-name="e" unicode="e" 
d="M192 -213l103 108h247l98 -108h-448zM163 278l107 -104v-245l-107 -98v447zM278 242q-37 29 -70 55l70 53h273l70 -53l-70 -55h-273zM191 803h446l-97 -108h-247zM160 313v447l107 -97v-248z" />
    <glyph glyph-name="f" unicode="f" 
d="M163 278l107 -104v-245l-107 -98v447zM279 242q-37 29 -70 55l70 53h273l70 -53l-70 -55h-273zM191 803h447l-97 -108h-247zM162 313v447l107 -97v-248z" />
    <glyph glyph-name="g" unicode="g" 
d="M177 -213l103 108h247l97 -108h-447zM147 278l108 -104v-245l-108 -98v447zM656 -169l-108 103v246l108 98v-447zM263 242q-35 28 -71 55l71 53h273l70 -53l-70 -55h-273zM176 803h447l-99 -108h-245zM144 313v447l108 -97v-248z" />
    <glyph glyph-name="h" unicode="h" 
d="M147 278l108 -104v-245l-108 -98v447zM656 -169l-108 103v246l108 98v-447zM263 242q-35 28 -71 55l71 53h273l70 -53l-70 -55h-273zM144 313v447l108 -97v-248zM653 760v-447l-108 97v247z" />
    <glyph glyph-name="i" unicode="i" 
d="M455 -169l-108 103v246l108 98v-447zM453 760v-447l-108 97v247z" />
    <glyph glyph-name="j" unicode="j" 
d="M545 -169l-108 103v246l108 98v-447zM543 760v-447l-107 97v247zM399 -92l103 -108h-247l98 108h46z" />
    <glyph glyph-name="k" unicode="k" 
d="M265 150v-221l-107 -98v447zM474 35q1 -1 5.5 -5t6.5 -7q0 -1 1 -1l1 -2l146 -150zM474 558q1 1 5.5 5t6.5 7l1 1q1 1 1 2l146 150zM158 278l107 -104v-245l-107 -98v447zM273 242q-36 29 -68 55l68 53h5l69 -53l-69 -55h-5zM156 313v447l107 -97v-248zM323 193h149
q34 -34 94.5 -98t76.5 -81l-9 -144l-146 150l-1 1q-1 1 -1 2l-12 12zM323 400l151 158q1 1 5.5 5t6.5 7l1 1q1 1 1 2l146 150l9 -144q-16 -17 -76.5 -81t-94.5 -98h-149z" />
    <glyph glyph-name="l" unicode="l" 
d="M192 -213l103 108h247l98 -108h-448zM163 278l107 -104v-245l-107 -98v447zM160 313v447l107 -97v-248z" />
    <glyph glyph-name="m" unicode="m" 
d="M101 278l108 -104v-245l-108 -98v447zM710 -169l-108 103v246l108 98v-447zM383 534l5 -44l-87 8l-201 187l-14 86l87 -8l201 -185zM99 313v327l108 -98v-127zM708 640v-327l-108 97v127zM417 534l9 44l201 185l87 8l-14 -86l-201 -187l-87 -8z" />
    <glyph glyph-name="n" unicode="n" 
d="M97 363v449l108 -99v-247zM706 812v-449l-108 99v246zM94 329l108 -103v-247l-108 -98v448zM703 -119l-108 104v246l108 98v-448zM256 516v203l284 -478v-204z" />
    <glyph glyph-name="o" unicode="o" 
d="M177 -213l103 108h247l97 -108h-447zM147 278l108 -104v-245l-108 -98v447zM656 -169l-108 103v246l108 98v-447zM176 803h447l-99 -108h-245zM144 313v447l108 -97v-248zM653 760v-447l-108 97v247z" />
    <glyph glyph-name="p" unicode="p" 
d="M148 278l108 -104v-245l-108 -98v447zM263 242q-35 29 -70 55l70 53h274l70 -53l-70 -55h-274zM177 803h446l-97 -108h-247zM145 313v447l108 -97v-248zM655 760v-447l-108 97v247z" />
    <glyph glyph-name="q" unicode="q" 
d="M177 -213l103 108h247l97 -108h-447zM147 278l108 -104v-245l-108 -98v447zM656 -169l-108 103v246l108 98v-447zM176 803h447l-99 -108h-245zM144 313v447l108 -97v-248zM653 760v-447l-108 97v247zM476 -63l-149 4l154 154l6 6t5 6q0 1 2 3q0 2 1 2l6 4l8 -145z" />
    <glyph glyph-name="r" unicode="r" 
d="M256 150v-221l-108 -98v447zM602 48zM479 176l154 -162l-11 -144q-143 150 -146 153q-2 3 -6 6t-6 6l-151 158zM148 278l108 -104v-245l-108 -98v447zM263 242q-35 29 -70 55l70 53h274l70 -53l-70 -55h-274zM177 803h446l-97 -108h-247zM145 313v447l108 -97v-248z
M655 760v-447l-108 97v247zM313 193h150q33 -35 94.5 -99.5t75.5 -79.5l-11 -144q-143 150 -146 153q-2 3 -6 6t-6 6z" />
    <glyph glyph-name="s" unicode="s" 
d="M177 -213l103 108h247l97 -108h-447zM656 -169l-108 103v246l108 98v-447zM263 242q-35 28 -71 55l71 53h273l70 -53l-70 -55h-273zM176 803h447l-99 -108h-245zM144 313v447l108 -97v-248z" />
    <glyph glyph-name="t" unicode="t" 
d="M455 -169l-108 103v246l108 98v-447zM93 713q-35 28 -70 53l70 54h614l70 -54l-70 -53h-255v-400l-108 97v247l59 56h-310z" />
    <glyph glyph-name="u" unicode="u" 
d="M177 -213l103 108h247l97 -108h-447zM147 278l108 -104v-245l-108 -98v447zM656 -169l-108 103v246l108 98v-447zM144 313v447l108 -97v-248zM653 760v-447l-108 97v247z" />
    <glyph glyph-name="v" unicode="v" 
d="M792 536l-344 -680v254l344 677v-251zM8 536v251l344 -677v-254z" />
    <glyph glyph-name="w" unicode="w" 
d="M699 323l-108 104v246l108 98v-448zM90 771l108 -104v-246l-108 -98v448zM417 67l-5 45l87 -9l201 -186l14 -86l-87 7l-201 186zM701 288v-326l-108 97v127zM92 -38v326l108 -97v-127zM383 67l-9 -43l-201 -186l-87 -7l14 86l201 186l87 9z" />
    <glyph glyph-name="x" unicode="x" 
d="M103 565v183l297 -354l297 354v-183l-220 -263l220 -262v-184l-297 354l-297 -354v184l220 262z" />
    <glyph glyph-name="y" unicode="y" 
d="M622 595l-444 -730v185l198 325l46 -49v124l200 328v-183zM376 375l46 75v60l-244 268v-192z" />
    <glyph glyph-name="z" unicode="z" 
d="M177 -152l103 108h247l97 -108h-447zM176 763h447l-99 -107h-245zM620 486l-444 -560v184l444 557v-181z" />
    <glyph glyph-name="braceleft" unicode="{" 
d="M366 -213l104 108h46l98 -108h-248zM337 278l107 -104v-245l-107 -98v447zM365 803h248l-99 -108h-45zM335 313v447l107 -97v-248zM186 273v47l107 97v-247z" />
    <glyph glyph-name="bar" unicode="|" 
d="M455 760v-219q0 -3 -1 -7.5t-1 -7.5v-684l-108 98v693h2v24z" />
    <glyph glyph-name="braceright" unicode="}" 
d="M434 -213h-248l98 108h46zM463 278v-447l-107 98v245zM435 803l-104 -108h-45l-99 108h248zM465 313l-107 102v248l107 97v-447zM614 273l-107 -103v247l107 -97v-47z" />
    <glyph glyph-name="asciitilde" unicode="~" 
d="M263 242q-35 29 -70 55l70 53h274l70 -53l-70 -55h-274z" />
    <glyph glyph-name="uni007F" 
 />
    <glyph glyph-name="uni0080" 
 />
    <glyph glyph-name="uni0081" 
 />
    <glyph glyph-name="uni0082" 
 />
    <glyph glyph-name="uni0083" 
 />
    <glyph glyph-name="uni0084" 
 />
    <glyph glyph-name="uni0085" unicode="&#x85;" 
 />
    <glyph glyph-name="uni0086" 
 />
    <glyph glyph-name="uni0087" 
 />
    <glyph glyph-name="uni0088" 
 />
    <glyph glyph-name="uni0089" 
 />
    <glyph glyph-name="uni008A" 
 />
    <glyph glyph-name="uni008B" 
 />
    <glyph glyph-name="uni008C" 
 />
    <glyph glyph-name="uni008D" 
 />
    <glyph glyph-name="uni008E" 
 />
    <glyph glyph-name="uni008F" 
 />
    <glyph glyph-name="uni0090" 
 />
    <glyph glyph-name="uni0091" 
 />
    <glyph glyph-name="uni0092" 
 />
    <glyph glyph-name="uni0093" 
 />
    <glyph glyph-name="uni0094" 
 />
    <glyph glyph-name="uni0095" 
 />
    <glyph glyph-name="uni0096" 
 />
    <glyph glyph-name="uni0097" 
 />
    <glyph glyph-name="uni0098" 
 />
    <glyph glyph-name="uni0099" 
 />
    <glyph glyph-name="uni009A" 
 />
    <glyph glyph-name="uni009B" 
 />
    <glyph glyph-name="uni009C" 
 />
    <glyph glyph-name="uni009D" 
 />
    <glyph glyph-name="uni009E" 
 />
    <glyph glyph-name="uni009F" 
 />
    <glyph glyph-name="uni00A0" unicode="&#xa0;" 
 />
    <glyph glyph-name="exclamdown" unicode="&#xa1;" 
d="M455 -169l-108 103v246l108 98v-447zM453 760v-447l-108 97v247z" />
    <glyph glyph-name="cent" unicode="&#xa2;" 
d="M192 -213l103 108h36v800h-38l-102 108h140v4l107 103v-107h199l-97 -108h-102v-800h104l98 -108h-202v-104l-107 97v7h-139zM163 278l107 -104v-245l-107 -98v447zM160 313v447l107 -97v-248z" />
    <glyph glyph-name="sterling" unicode="&#xa3;" 
d="M91 -213l103 108h36v-64l70 64h312l97 -108h-618zM216 242q-36 29 -69 55l69 53h13v-37l39 37h252l70 -53l-70 -55h-253l-37 36v-36h-14zM259 803h348l-98 -108h-146zM463 948h46l98 -108h-248zM300 -105l37 34v245l-70 68h-37v-347h70zM229 350h39l69 65v248l-108 97
v-410z" />
    <glyph glyph-name="currency" unicode="&#xa4;" 
d="M473 478l14 -14l-3 -57l-3 2l-15 15v31h-31l-22 22zM473 297l-60 1l29 29h24v23q15 15 18 17l3 -57zM327 297l-14 13l3 57l3 -2l21 -21v-17h18l29 -29zM327 478l60 -1l-22 -22h-25v-25l-21 -21l-3 -2l-3 57zM466 424l-31 31h-70l-25 -25v-86l18 -17h84l24 23v74z" />
    <glyph glyph-name="yen" unicode="&#xa5;" 
d="M173 333q-37 27 -70 54l70 53h151l61 -65l40 65h6v10l200 328v-183l-94 -155h90l70 -53l-70 -54h-155l-51 -83h206l70 -53l-70 -55h-272l-168 -277v185l56 92h-70q-37 29 -70 55l70 53h136l51 83h-187zM431 450v60l-244 268v-192l137 -146h101zM424 333l7 -7v7h-7z" />
    <glyph glyph-name="brokenbar" unicode="&#xa6;" 
d="M455 -169l-108 103v246l108 98v-447zM453 760v-447l-108 97v247z" />
    <glyph glyph-name="section" unicode="&#xa7;" 
d="M622 -172h-448l98 108h247zM607 97q-35 -27 -70 -55h-274l-70 55l70 53h274zM655 113l-108 102v248l108 97v-447zM145 560l108 -103v-247l-108 -97v447zM187 855h449l-99 -108h-246zM607 577q-35 -27 -70 -55h-274l-70 55l70 53h274zM544 -31v5l108 104v-207zM264 713v-6
l-107 -104v209z" />
    <glyph glyph-name="dieresis" unicode="&#xa8;" 
d="M301 905h78v-78h-78v78zM421 905h78v-78h-78v78z" />
    <glyph glyph-name="copyright" unicode="&#xa9;" 
d="M177 -213l103 108h247l97 -108h-447zM147 278l108 -104v-245l-108 -98v447zM656 -169l-108 103v246l108 98v-447zM176 803h447l-99 -108h-245zM144 313v447l108 -97v-248zM653 760v-447l-108 97v247zM321 92l42 44h99l39 -44h-180zM309 288l43 -41v-98l-43 -40v179z
M321 499h179l-38 -43h-99zM309 302v179l43 -39v-99z" />
    <glyph glyph-name="ordfeminine" unicode="&#xaa;" 
d="M337 705h126v-48h-126v48zM348 819l21 -20v-50l-21 -19v89zM450 730l-22 20v50l22 19v-89zM364 817l-7 5l14 12h55l14 -12l-14 -9h-55zM353 924h90l-20 -22h-49zM348 826v89l21 -20v-48zM449 915v-89l-21 19v49z" />
    <glyph glyph-name="guillemotleft" unicode="&#xab;" 
d="M534 487v-11q0 -3 0.5 -8.5t0.5 -8.5v-219l-108 103l-1 47zM373 487v-11q0 -3 0.5 -8.5t0.5 -8.5v-219l-108 103l-1 47z" />
    <glyph glyph-name="logicalnot" unicode="&#xac;" 
d="M130 242q-37 29 -70 55l70 53h454l69 -53l-69 -55h-454zM740 140q-28 -35 -53 -70l-54 70v53l54 70l53 -70v-53z" />
    <glyph glyph-name="uni00AD" unicode="&#xad;" 
d="M313 242q-35 29 -70 55l70 53h174l70 -53l-70 -55h-174z" />
    <glyph glyph-name="registered" unicode="&#xae;" 
d="M341 230v-89l-43 -39v179zM480 188zM431 240l61 -64l-5 -59l-57 61q-1 1 -3 3.5t-3 3.5l-60 63zM177 -213l103 108h247l97 -108h-447zM147 278l108 -104v-245l-108 -98v447zM656 -169l-108 103v246l108 98v-447zM176 803h447l-99 -108h-245zM144 313v447l108 -97v-248z
M653 760v-447l-108 97v247zM298 281l43 -41v-99l-43 -39v179zM330 278l-14 10l28 22h109l30 -22l-30 -22h-109zM310 491h178l-39 -43h-98zM298 295v179l42 -39v-98zM501 474v-179l-43 40v99zM364 248h60q13 -14 38 -40t30 -32l-5 -59l-57 61q-1 1 -3 3.5t-3 3.5z" />
    <glyph glyph-name="macron" unicode="&#xaf;" 
d="M337 785h126v-48h-126v48z" />
    <glyph glyph-name="degree" unicode="&#xb0;" 
d="M337 905h126v-128h-126v128z" />
    <glyph glyph-name="plusminus" unicode="&#xb1;" 
d="M263 242q-35 29 -70 55l70 53h84v84q26 32 53 69l53 -69v-84h84l70 -53l-70 -55h-84v-82l-53 -70l-53 70v82h-84zM263 -48q-35 29 -70 55l70 53h274l70 -53l-70 -55h-274z" />
    <glyph glyph-name="uni00B2" unicode="&#xb2;" 
d="M334 603l30 33h73l30 -33h-133zM324 750l33 -31v-74l-33 -30v135zM359 740l-22 16l22 16h82l22 -16l-22 -16h-82zM333 908h133l-29 -32h-74zM476 894v-134l-33 30v73z" />
    <glyph glyph-name="uni00B3" unicode="&#xb3;" 
d="M328 593l32 33h74l29 -33h-135zM472 606l-32 31v75l32 28v-134zM343 737l-9 8l20 18h82l21 -18l-21 -15h-82zM328 898h135l-30 -33h-73zM471 885v-135l-31 30v73z" />
    <glyph glyph-name="acute" unicode="&#xb4;" 
d="M407 959l109 -64l-123 -212l-109 62z" />
    <glyph glyph-name="mu" unicode="&#xb5;" 
d="M77 358l108 -103v-247l-77 -80h77v-59l-108 -98v587zM586 -29l-108 102v187l108 98v-387zM74 383v377l109 -97v-177zM584 760v-377l-108 97v153h1v24zM726 74v-46l-109 -98v248zM185 -72h371l-99 108h-245l-27 -28v-80z" />
    <glyph glyph-name="paragraph" unicode="&#xb6;" 
d="M453 760v-918l-108 98v717zM603 760v-918l-108 98v717zM197 478v46l108 98v-248z" />
    <glyph glyph-name="periodcentered" unicode="&#xb7;" 
d="M337 455h126v-128h-126v128z" />
    <glyph glyph-name="cedilla" unicode="&#xb8;" 
d="M407 69l109 -63l-123 -214l-109 64z" />
    <glyph glyph-name="uni00B9" unicode="&#xb9;" 
d="M417 636l-34 30v75l34 29v-134zM415 914v-134l-32 30v74z" />
    <glyph glyph-name="ordmasculine" unicode="&#xba;" 
d="M337 974h126v-127h-126v127zM337 785h126v-48h-126v48z" />
    <glyph glyph-name="guillemotright" unicode="&#xbb;" 
d="M266 240v13q0 3 -0.5 8t-0.5 8v218l108 -102l1 -48zM427 240v13q0 3 -0.5 8t-0.5 8v218l108 -102l1 -48z" />
    <glyph glyph-name="onequarter" unicode="&#xbc;" 
d="M549 536l-343 -680v254l344 677zM216 445l-31 32v74l31 29v-135zM216 724v-65q0 -1 -0.5 -2t-0.5 -2v-65l-31 30v73zM616 -85l-31 32v8h-1v66l32 29v-135zM487 48l-9 8l20 16h82l21 -16l-21 -16h-82zM463 60v134l32 -29v-74zM615 194v-134l-31 30v73z" />
    <glyph glyph-name="onehalf" unicode="&#xbd;" 
d="M550 536l-344 -680v254l344 677v-251zM216 445l-31 32v74l31 29v-135zM216 724v-134l-31 30v73zM473 -87l32 32h73l30 -32h-135zM463 60l32 -31v-73l-32 -30v134zM487 58l-9 7l21 18h82l20 -18l-20 -15h-82zM472 217h135l-29 -31h-75zM615 205v-135l-31 30v73z" />
    <glyph glyph-name="threequarters" unicode="&#xbe;" 
d="M570 536l-344 -680v254l344 677v-251zM164 434l30 31h75l29 -31h-134zM308 445l-32 32v74l32 29v-135zM179 578l-10 8l19 16h83l21 -16l-21 -16h-83zM163 737h135l-31 -31h-73zM307 724v-134l-33 30v73zM637 -85l-32 32v74l32 29v-135zM519 40q-11 8 -21 16l21 16h82
l21 -16l-21 -16h-82zM484 60v134l31 -29v-74zM636 194v-134l-33 30v73z" />
    <glyph glyph-name="questiondown" unicode="&#xbf;" 
d="M535 337l-108 104v137l108 98v-339zM453 347l34 -28l-70 -54h-138l-70 54l70 54h138zM638 -187h-447l99 108h222v-1h24zM162 -144v447l107 -97v-247zM483 803q32 -25 69 -54l-69 -54h-4l-70 54l70 54h4z" />
    <glyph glyph-name="Agrave" unicode="&#xc0;" 
d="M147 278l108 -104v-245l-108 -98v447zM656 -169l-108 103v246l108 98v-447zM263 242q-35 28 -71 55l71 53h273l70 -53l-70 -55h-273zM144 313v447l108 -97v-248zM653 760v-447l-108 97v247zM358 803l-53 92l109 64l90 -156h119l-99 -108h-75l-21 -12l-7 12h-142l-103 108
h182z" />
    <glyph glyph-name="Aacute" unicode="&#xc1;" 
d="M147 278l108 -104v-245l-108 -98v447zM656 -169l-108 103v246l108 98v-447zM263 242q-35 28 -71 55l71 53h273l70 -53l-70 -55h-273zM144 313v447l108 -97v-248zM653 760v-447l-108 97v247zM428 959l109 -64l-53 -92h139l-99 -108h-103l-7 -12l-21 12h-114l-103 108h162z
" />
    <glyph glyph-name="Acircumflex" unicode="&#xc2;" 
d="M147 278l108 -104v-245l-108 -98v447zM656 -169l-108 103v246l108 98v-447zM263 242q-35 28 -71 55l71 53h273l70 -53l-70 -55h-273zM176 803h447l-99 -108h-245zM144 313v447l108 -97v-248zM653 760v-447l-108 97v247zM379 948h45l99 -108h-247z" />
    <glyph glyph-name="Atilde" unicode="&#xc3;" 
d="M147 278l108 -104v-245l-108 -98v447zM656 -169l-108 103v246l108 98v-447zM263 242q-35 28 -71 55l71 53h273l70 -53l-70 -55h-273zM176 803h447l-99 -108h-245zM144 313v447l108 -97v-248zM653 760v-447l-108 97v247zM263 842q-35 28 -71 55l71 53h273l70 -53l-70 -55
h-273z" />
    <glyph glyph-name="Adieresis" unicode="&#xc4;" 
d="M147 278l108 -104v-245l-108 -98v447zM656 -169l-108 103v246l108 98v-447zM263 242q-35 28 -71 55l71 53h273l70 -53l-70 -55h-273zM176 803h447l-99 -108h-245zM144 313v447l108 -97v-248zM653 760v-447l-108 97v247zM305 914h66v-62h-66v62zM424 914h67v-62h-67v62z
" />
    <glyph glyph-name="Aring" unicode="&#xc5;" 
d="M147 278l108 -104v-245l-108 -98v447zM656 -169l-108 103v246l108 98v-447zM263 242q-35 28 -71 55l71 53h273l70 -53l-70 -55h-273zM176 803h447l-99 -108h-245zM144 313v447l108 -97v-248zM653 760v-447l-108 97v247zM358 974h127v-127h-127v127z" />
    <glyph glyph-name="AE" unicode="&#xc6;" 
d="M387 -213l103 108h247l98 -108h-448zM356 278l107 -104v-245l-107 -98v447zM472 242q-35 29 -70 55l70 53h273l70 -53l-70 -55h-273zM385 803h448l-98 -108h-248zM355 313v447l108 -97v-248zM118 128l-153 -342v254l345 768v-252l-155 -346h90l70 -53l-70 -55h-93z" />
    <glyph glyph-name="Ccedilla" unicode="&#xc7;" 
d="M192 -213l103 108h48l-23 -39l110 -64l59 103h53l98 -108h-448zM163 278l107 -104v-245l-107 -98v447zM191 803h446l-97 -108h-247zM160 313v447l107 -97v-248zM489 -105l64 111l-110 63l-100 -174h146z" />
    <glyph glyph-name="Egrave" unicode="&#xc8;" 
d="M192 -213l103 108h247l98 -108h-448zM163 278l107 -104v-245l-107 -98v447zM278 242q-37 29 -70 55l70 53h273l70 -53l-70 -55h-273zM160 313v447l107 -97v-248zM373 803l-53 92l110 64l90 -156h117l-97 -108h-76l-21 -12l-7 12h-143l-102 108h182z" />
    <glyph glyph-name="Eacute" unicode="&#xc9;" 
d="M192 -213l103 108h247l98 -108h-448zM163 278l107 -104v-245l-107 -98v447zM278 242q-37 29 -70 55l70 53h273l70 -53l-70 -55h-273zM160 313v447l107 -97v-248zM443 959l110 -64l-53 -92h137l-97 -108h-103l-7 -12l-21 12h-116l-102 108h162z" />
    <glyph glyph-name="Ecircumflex" unicode="&#xca;" 
d="M192 -213l103 108h247l98 -108h-448zM163 278l107 -104v-245l-107 -98v447zM278 242q-37 29 -70 55l70 53h273l70 -53l-70 -55h-273zM191 803h446l-97 -108h-247zM160 313v447l107 -97v-248zM393 948h47l97 -108h-246z" />
    <glyph glyph-name="Edieresis" unicode="&#xcb;" 
d="M192 -213l103 108h247l98 -108h-448zM163 278l107 -104v-245l-107 -98v447zM278 242q-37 29 -70 55l70 53h273l70 -53l-70 -55h-273zM191 803h446l-97 -108h-247zM160 313v447l107 -97v-248zM320 914h67v-62h-67v62zM440 914h67v-62h-67v62z" />
    <glyph glyph-name="Igrave" unicode="&#xcc;" 
d="M576 -169l-109 103v246l109 98v-447zM573 760v-447l-108 97v247zM335 959l123 -214l-110 -62l-124 212z" />
    <glyph glyph-name="Iacute" unicode="&#xcd;" 
d="M576 -169l-109 103v246l109 98v-447zM573 760v-447l-108 97v247zM348 959l110 -64l-123 -212l-111 62z" />
    <glyph glyph-name="Icircumflex" unicode="&#xce;" 
d="M437 -169l-108 103v246l108 98v-447zM435 760v-447l-108 97v247zM379 908h47l97 -108h-246z" />
    <glyph glyph-name="Idieresis" unicode="&#xcf;" 
d="M437 -169l-107 103v246l107 98v-447zM436 760v-447l-108 97v247zM307 914h66v-62h-66v62zM427 914h66v-62h-66v62z" />
    <glyph glyph-name="Eth" unicode="&#xd0;" 
d="M177 -213l103 108h247l97 -108h-447zM147 278l108 -104v-245l-108 -98v447zM656 -169l-108 103v246l108 98v-447zM176 803h447l-99 -108h-245zM144 313v447l108 -97v-248zM653 760v-447l-108 97v247z" />
    <glyph glyph-name="Ntilde" unicode="&#xd1;" 
d="M97 363v449l108 -99v-247zM706 812v-449l-108 99v246zM94 329l108 -103v-247l-108 -98v448zM703 -119l-108 104v246l108 98v-448zM256 516v203l284 -478v-204zM272 842q-35 29 -70 55l70 53h273l70 -53l-70 -55h-273z" />
    <glyph glyph-name="Ograve" unicode="&#xd2;" 
d="M177 -213l103 108h247l97 -108h-447zM147 278l108 -104v-245l-108 -98v447zM656 -169l-108 103v246l108 98v-447zM144 313v447l108 -97v-248zM653 760v-447l-108 97v247zM358 803l-53 92l109 64l90 -156h119l-99 -108h-75l-21 -12l-7 12h-142l-103 108h182z" />
    <glyph glyph-name="Oacute" unicode="&#xd3;" 
d="M177 -213l103 108h247l97 -108h-447zM147 278l108 -104v-245l-108 -98v447zM656 -169l-108 103v246l108 98v-447zM144 313v447l108 -97v-248zM653 760v-447l-108 97v247zM428 959l109 -64l-53 -92h139l-99 -108h-103l-7 -12l-21 12h-114l-103 108h162z" />
    <glyph glyph-name="Ocircumflex" unicode="&#xd4;" 
d="M177 -213l103 108h247l97 -108h-447zM147 278l108 -104v-245l-108 -98v447zM656 -169l-108 103v246l108 98v-447zM176 803h447l-99 -108h-245zM144 313v447l108 -97v-248zM653 760v-447l-108 97v247zM379 948h45l99 -108h-247z" />
    <glyph glyph-name="Otilde" unicode="&#xd5;" 
d="M177 -213l103 108h247l97 -108h-447zM147 278l108 -104v-245l-108 -98v447zM656 -169l-108 103v246l108 98v-447zM176 803h447l-99 -108h-245zM144 313v447l108 -97v-248zM653 760v-447l-108 97v247zM263 842q-35 28 -71 55l71 53h273l70 -53l-70 -55h-273z" />
    <glyph glyph-name="Odieresis" unicode="&#xd6;" 
d="M177 -213l103 108h247l97 -108h-447zM147 278l108 -104v-245l-108 -98v447zM656 -169l-108 103v246l108 98v-447zM176 803h447l-99 -108h-245zM144 313v447l108 -97v-248zM653 760v-447l-108 97v247zM305 914h66v-62h-66v62zM424 914h67v-62h-67v62z" />
    <glyph glyph-name="multiply" unicode="&#xd7;" 
d="M178 486v181l222 -279l222 279v-181l-149 -189l149 -187v-184l-222 280l-222 -280v184l149 187z" />
    <glyph glyph-name="Oslash" unicode="&#xd8;" 
d="M179 -213l104 108h246l98 -108h-448zM658 -169l-108 103v246l108 98v-447zM178 803h446l-97 -108h-246zM147 313v447l108 -97v-248zM656 633l36 34v-181l-36 -35v-138l-75 67l-324 -311v-140l-108 -98v134l-41 -39v184l41 39v129l67 -65l332 317v127l108 103v-127z" />
    <glyph glyph-name="Ugrave" unicode="&#xd9;" 
d="M177 -213l103 108h247l97 -108h-447zM147 278l108 -104v-245l-108 -98v447zM656 -169l-108 103v246l108 98v-447zM144 313v447l108 -97v-248zM653 760v-447l-108 97v247zM414 959l123 -214l-109 -62l-123 212z" />
    <glyph glyph-name="Uacute" unicode="&#xda;" 
d="M177 -213l103 108h247l97 -108h-447zM147 278l108 -104v-245l-108 -98v447zM656 -169l-108 103v246l108 98v-447zM144 313v447l108 -97v-248zM653 760v-447l-108 97v247zM428 959l109 -64l-123 -212l-109 62z" />
    <glyph glyph-name="Ucircumflex" unicode="&#xdb;" 
d="M177 -213l103 108h247l97 -108h-447zM147 278l108 -104v-245l-108 -98v447zM656 -169l-108 103v246l108 98v-447zM144 313v447l108 -97v-248zM653 760v-447l-108 97v247zM379 948h45l99 -108h-247z" />
    <glyph glyph-name="Udieresis" unicode="&#xdc;" 
d="M177 -213l103 108h247l97 -108h-447zM147 278l108 -104v-245l-108 -98v447zM656 -169l-108 103v246l108 98v-447zM144 313v447l108 -97v-248zM653 760v-447l-108 97v247zM305 914h66v-62h-66v62zM424 914h67v-62h-67v62z" />
    <glyph glyph-name="Yacute" unicode="&#xdd;" 
d="M622 595l-444 -730v185l198 325l46 -49v124l200 328v-183zM430 959l110 -64l-124 -212l-109 62zM376 375l46 75v60l-244 268v-192z" />
    <glyph glyph-name="Thorn" unicode="&#xde;" 
d="M87 278l107 -104v-245l-107 -98v447zM85 313v447l107 -97v-248zM237 98l103 108h247l98 -108h-448zM715 141l-107 102v247l107 97v-446zM322 552q-35 29 -70 55l70 53h273l70 -53l-70 -55h-273z" />
    <glyph glyph-name="germandbls" unicode="&#xdf;" 
d="M177 -213l103 108h247l97 -108h-447zM147 278l108 -104v-245l-108 -98v447zM656 -169l-108 103v246l108 98v-447zM263 242q-35 28 -71 55l71 53h273l70 -53l-70 -55h-273zM176 803h447l-99 -108h-245zM144 313v447l108 -97v-248zM653 760v-447l-108 97v247z" />
    <glyph glyph-name="agrave" unicode="&#xe0;" 
d="M147 278l108 -104v-245l-108 -98v447zM656 -169l-108 103v246l108 98v-447zM263 242q-35 28 -71 55l71 53h273l70 -53l-70 -55h-273zM144 313v447l108 -97v-248zM653 760v-447l-108 97v247zM358 803l-53 92l109 64l90 -156h119l-99 -108h-75l-21 -12l-7 12h-142l-103 108
h182z" />
    <glyph glyph-name="aacute" unicode="&#xe1;" 
d="M147 278l108 -104v-245l-108 -98v447zM656 -169l-108 103v246l108 98v-447zM263 242q-35 28 -71 55l71 53h273l70 -53l-70 -55h-273zM144 313v447l108 -97v-248zM653 760v-447l-108 97v247zM428 959l109 -64l-53 -92h139l-99 -108h-103l-7 -12l-21 12h-114l-103 108h162z
" />
    <glyph glyph-name="acircumflex" unicode="&#xe2;" 
d="M147 278l108 -104v-245l-108 -98v447zM656 -169l-108 103v246l108 98v-447zM263 242q-35 28 -71 55l71 53h273l70 -53l-70 -55h-273zM176 803h447l-99 -108h-245zM144 313v447l108 -97v-248zM653 760v-447l-108 97v247zM379 948h45l99 -108h-247z" />
    <glyph glyph-name="atilde" unicode="&#xe3;" 
d="M147 278l108 -104v-245l-108 -98v447zM656 -169l-108 103v246l108 98v-447zM263 242q-35 28 -71 55l71 53h273l70 -53l-70 -55h-273zM176 803h447l-99 -108h-245zM144 313v447l108 -97v-248zM653 760v-447l-108 97v247zM263 842q-35 28 -71 55l71 53h273l70 -53l-70 -55
h-273z" />
    <glyph glyph-name="adieresis" unicode="&#xe4;" 
d="M147 278l108 -104v-245l-108 -98v447zM656 -169l-108 103v246l108 98v-447zM263 242q-35 28 -71 55l71 53h273l70 -53l-70 -55h-273zM176 803h447l-99 -108h-245zM144 313v447l108 -97v-248zM653 760v-447l-108 97v247zM305 914h66v-62h-66v62zM424 914h67v-62h-67v62z
" />
    <glyph glyph-name="aring" unicode="&#xe5;" 
d="M147 278l108 -104v-245l-108 -98v447zM656 -169l-108 103v246l108 98v-447zM263 242q-35 28 -71 55l71 53h273l70 -53l-70 -55h-273zM176 803h447l-99 -108h-245zM144 313v447l108 -97v-248zM653 760v-447l-108 97v247zM358 974h127v-127h-127v127z" />
    <glyph glyph-name="ae" unicode="&#xe6;" 
d="M-37 278l107 -104v-245l-107 -98v447zM78 242q-37 29 -70 55l70 53h273l9 -7v-30l18 17l36 -28l37 27l18 -16v30l9 7h273l70 -53l-70 -55h-273l-7 5v31l-18 -16q-3 2 -39 30l-36 -29l37 -36l-52 -47v71l-12 -9h-273zM-9 803h846l-97 -108h-247l-24 25v40l-20 -19l-34 37
l-34 -37l-21 19v-43l-20 -22h-247zM-40 313v447l107 -97v-248zM471 -130v377l-18 15l-38 -35l55 -53v-245l-52 -48l34 -32zM471 -130l24 25h247l98 -108h-448l60 62l19 -18v39zM363 -66l55 -53l-55 -50v103zM451 329l18 14v377l-20 21l-33 -32l-35 32l-21 -24v-374l18 -13
l35 34z" />
    <glyph glyph-name="ccedilla" unicode="&#xe7;" 
d="M192 -213l103 108h48l-23 -39l110 -64l59 103h53l98 -108h-448zM163 278l107 -104v-245l-107 -98v447zM191 803h446l-97 -108h-247zM160 313v447l107 -97v-248zM489 -105l64 111l-110 63l-100 -174h146z" />
    <glyph glyph-name="egrave" unicode="&#xe8;" 
d="M192 -213l103 108h247l98 -108h-448zM163 278l107 -104v-245l-107 -98v447zM278 242q-37 29 -70 55l70 53h273l70 -53l-70 -55h-273zM160 313v447l107 -97v-248zM373 803l-53 92l110 64l90 -156h117l-97 -108h-76l-21 -12l-7 12h-143l-102 108h182z" />
    <glyph glyph-name="eacute" unicode="&#xe9;" 
d="M192 -213l103 108h247l98 -108h-448zM163 278l107 -104v-245l-107 -98v447zM278 242q-37 29 -70 55l70 53h273l70 -53l-70 -55h-273zM160 313v447l107 -97v-248zM443 959l110 -64l-53 -92h137l-97 -108h-103l-7 -12l-21 12h-116l-102 108h162z" />
    <glyph glyph-name="ecircumflex" unicode="&#xea;" 
d="M192 -213l103 108h247l98 -108h-448zM163 278l107 -104v-245l-107 -98v447zM278 242q-37 29 -70 55l70 53h273l70 -53l-70 -55h-273zM191 803h446l-97 -108h-247zM160 313v447l107 -97v-248zM393 958h47l97 -108h-246z" />
    <glyph glyph-name="edieresis" unicode="&#xeb;" 
d="M192 -213l103 108h247l98 -108h-448zM163 278l107 -104v-245l-107 -98v447zM278 242q-37 29 -70 55l70 53h273l70 -53l-70 -55h-273zM191 803h446l-97 -108h-247zM160 313v447l107 -97v-248zM320 914h67v-62h-67v62zM440 914h67v-62h-67v62z" />
    <glyph glyph-name="igrave" unicode="&#xec;" 
d="M576 -169l-109 103v246l109 98v-447zM573 760v-447l-108 97v247zM335 959l123 -214l-110 -62l-124 212z" />
    <glyph glyph-name="iacute" unicode="&#xed;" 
d="M576 -169l-109 103v246l109 98v-447zM573 760v-447l-108 97v247zM348 959l110 -64l-123 -212l-111 62z" />
    <glyph glyph-name="icircumflex" unicode="&#xee;" 
d="M447 -169l-109 103v246l109 98v-447zM444 760v-447l-107 97v247zM379 908h47l97 -108h-246z" />
    <glyph glyph-name="idieresis" unicode="&#xef;" 
d="M437 -169l-107 103v246l107 98v-447zM436 760v-447l-108 97v247zM307 894h66v-61h-66v61zM427 894h66v-61h-66v61z" />
    <glyph glyph-name="eth" unicode="&#xf0;" 
d="M177 -213l103 108h247l97 -108h-447zM147 278l108 -104v-245l-108 -98v447zM656 -169l-108 103v246l108 98v-447zM176 803h447l-99 -108h-245zM144 313v447l108 -97v-248zM653 760v-447l-108 97v247zM263 842q-35 28 -71 55l71 53h273l70 -53l-70 -55h-273z" />
    <glyph glyph-name="ntilde" unicode="&#xf1;" 
d="M97 363v449l108 -99v-247zM706 812v-449l-108 99v246zM94 329l108 -103v-247l-108 -98v448zM703 -119l-108 104v246l108 98v-448zM256 516v203l284 -478v-204zM263 842q-35 28 -71 55l71 53h273l70 -53l-70 -55h-273z" />
    <glyph glyph-name="ograve" unicode="&#xf2;" 
d="M177 -213l103 108h247l97 -108h-447zM147 278l108 -104v-245l-108 -98v447zM656 -169l-108 103v246l108 98v-447zM144 313v447l108 -97v-248zM653 760v-447l-108 97v247zM358 803l-53 92l109 64l90 -156h119l-99 -108h-75l-21 -12l-7 12h-142l-103 108h182z" />
    <glyph glyph-name="oacute" unicode="&#xf3;" 
d="M177 -213l103 108h247l97 -108h-447zM147 278l108 -104v-245l-108 -98v447zM656 -169l-108 103v246l108 98v-447zM144 313v447l108 -97v-248zM653 760v-447l-108 97v247zM428 959l109 -64l-53 -92h139l-99 -108h-103l-7 -12l-21 12h-114l-103 108h162z" />
    <glyph glyph-name="ocircumflex" unicode="&#xf4;" 
d="M177 -213l103 108h247l97 -108h-447zM147 278l108 -104v-245l-108 -98v447zM656 -169l-108 103v246l108 98v-447zM176 803h447l-99 -108h-245zM144 313v447l108 -97v-248zM653 760v-447l-108 97v247zM379 948h45l99 -108h-247z" />
    <glyph glyph-name="otilde" unicode="&#xf5;" 
d="M177 -213l103 108h247l97 -108h-447zM147 278l108 -104v-245l-108 -98v447zM656 -169l-108 103v246l108 98v-447zM176 803h447l-99 -108h-245zM144 313v447l108 -97v-248zM653 760v-447l-108 97v247zM263 842q-35 28 -71 55l71 53h273l70 -53l-70 -55h-273z" />
    <glyph glyph-name="odieresis" unicode="&#xf6;" 
d="M177 -213l103 108h247l97 -108h-447zM147 278l108 -104v-245l-108 -98v447zM656 -169l-108 103v246l108 98v-447zM176 803h447l-99 -108h-245zM144 313v447l108 -97v-248zM653 760v-447l-108 97v247zM305 914h66v-62h-66v62zM424 914h67v-62h-67v62z" />
    <glyph glyph-name="divide" unicode="&#xf7;" 
d="M263 242q-35 29 -70 55l70 53h274l70 -53l-70 -55h-274zM367 205h68v-68h-68v68zM367 455h68v-68h-68v68z" />
    <glyph glyph-name="oslash" unicode="&#xf8;" 
d="M179 -213l104 108h246l98 -108h-448zM658 -169l-108 103v246l108 98v-447zM178 803h446l-97 -108h-246zM147 313v447l108 -97v-248zM656 633l36 34v-181l-36 -35v-138l-75 67l-324 -311v-140l-108 -98v134l-41 -39v184l41 39v129l67 -65l332 317v127l108 103v-127z" />
    <glyph glyph-name="ugrave" unicode="&#xf9;" 
d="M177 -213l103 108h247l97 -108h-447zM147 278l108 -104v-245l-108 -98v447zM656 -169l-108 103v246l108 98v-447zM144 313v447l108 -97v-248zM653 760v-447l-108 97v247zM414 959l123 -214l-109 -62l-123 212z" />
    <glyph glyph-name="uacute" unicode="&#xfa;" 
d="M177 -213l103 108h247l97 -108h-447zM147 278l108 -104v-245l-108 -98v447zM656 -169l-108 103v246l108 98v-447zM144 313v447l108 -97v-248zM653 760v-447l-108 97v247zM428 959l109 -64l-123 -212l-109 62z" />
    <glyph glyph-name="ucircumflex" unicode="&#xfb;" 
d="M177 -213l103 108h247l97 -108h-447zM147 278l108 -104v-245l-108 -98v447zM656 -169l-108 103v246l108 98v-447zM144 313v447l108 -97v-248zM653 760v-447l-108 97v247zM379 837h45l99 -107h-247z" />
    <glyph glyph-name="udieresis" unicode="&#xfc;" 
d="M177 -213l103 108h247l97 -108h-447zM147 278l108 -104v-245l-108 -98v447zM656 -169l-108 103v246l108 98v-447zM144 313v447l108 -97v-248zM653 760v-447l-108 97v247zM305 914h66v-62h-66v62zM424 914h67v-62h-67v62z" />
    <glyph glyph-name="yacute" unicode="&#xfd;" 
d="M622 595l-444 -730v185l198 325l46 -49v124l200 328v-183zM430 959l110 -64l-124 -212l-109 62zM376 375l46 75v60l-244 268v-192z" />
    <glyph glyph-name="thorn" unicode="&#xfe;" 
d="M87 278l107 -104v-245l-107 -98v447zM85 313v447l107 -97v-248zM237 37l103 108h247l98 -108h-448zM715 81l-107 103v246l107 98v-447zM322 492q-35 29 -70 55l70 53h273l70 -53l-70 -55h-273z" />
    <glyph glyph-name="ydieresis" unicode="&#xff;" 
d="M622 595l-444 -730v185l198 325l46 -49v124l200 328v-183zM307 914h66v-62h-66v62zM427 914h66v-62h-66v62zM376 375l46 75v60l-244 268v-192z" />
  </font>
</defs>
</svg>
